Hoşgeldin, Ziyaretçi: Giriş Yap Üye Ol


Konuyu Oyla:
  • Derecelendirme: 0/5 - 0 oy
  • 1
  • 2
  • 3
  • 4
  • 5
Çılgın İhtiyar (Dirty Grandpa) Türkçe Dublaj m1080P İndir
#1
Filmin Yayınlanma Tarihi: 2016 

indirme türü


Bulut + Premium

vizyon tarihi


22 Haziran 2016

Boyutlar


1,67GB

diller


[TR]

altyazilar


Yok [Eklenebilir]

Video Format: Mkv


Matroska (.MKV)

Video Detay


MPEG-4, 2100 Kbps, 1,50 GB

imdb puanı


6,0 / 10,0 / 71,000

süre


102 dakika

Ses Kodek: AC3


Audio Coding 3 (AC3)

Ses Detay


192 Kbps, 2 Kanal, 141 Mb

rarsifresi


filmbol.org

Editör Puanı


6,0

Genislik Yukseklik


1920x800

sürüm


x264 | m1080P




Film Detayları

Evlilik arifesindeki Jason ve eski asker emeklisi büyükbabası Dick, bahar tatili için soluğu Florida'da alır! Damat olmak üzereyken Jason'ı zorlu sınavlar beklemektedir. Ancak büyükbabanın niyeti çok farklıdır, eğlenmek, genç kadınlarla zaman geçirmek, kendini kaybetmek istemektedir. Jason büyükbabasının yaptıklarına inanamasa da zaman geçtikçe hayatın tadını çıkarmanın önemli olduğunu anlamaya başlayacaktır.Eğlenceli komedi filminin yönetmenliğini Dan Mazer üstlenirken, senaryo John Phillips'e ait. Filmin oyuncu kadrosunda ise Zac Efron, Robert De Niro ve Zoey Deutch başrollerde.

Teknik Detaylar

Kod:
General
Format                                   : Matroska
Format version                           : Version 4 / Version 2
File size                                : 1.67 GiB
Duration                                 : 1h 42mn
Overall bit rate                         : 2 338 Kbps
Movie name                               : Dirty Grandpa - Filmbol.org

Video
ID                                       : 1
Format                                   : AVC
Format/Info                              : Advanced Video Codec
Format profile                           : Main@L4.0
Format settings, CABAC                   : Yes
Format settings, ReFrames                : 2 frames
Codec ID                                 : V_MPEG4/ISO/AVC
Duration                                 : 1h 42mn
Bit rate                                 : 2 100 Kbps
Width                                    : 1 920 pixels
Height                                   : 800 pixels
Display aspect ratio                     : 2.40:1
Frame rate mode                          : Constant
Frame rate                               : 23.976 fps
Color space                              : YUV
Chroma subsampling                       : 4:2:0
Bit depth                                : 8 bits
Scan type                                : Progressive
Bits/(Pixel*Frame)                       : 0.057
Stream size                              : 1.50 GiB (90%)
Title                                    : m1080P - Filmbol.org
Language                                 : English
Default                                  : Yes
Forced                                   : No

Audio
ID                                       : 2
Format                                   : AC-3
Format/Info                              : Audio Coding 3
Mode extension                           : CM (complete main)
Format settings, Endianness              : Big
Codec ID                                 : A_AC3
Duration                                 : 1h 42mn
Bit rate mode                            : Constant
Bit rate                                 : 192 Kbps
Channel(s)                               : 2 channels
Channel positions                        : Front: L R
Sampling rate                            : 48.0 KHz
Bit depth                                : 16 bits
Compression mode                         : Lossy
Stream size                              : 141 MiB (8%)
Title                                    : Türkçe - Filmbol.org
Language                                 : Turkish
Default                                  : Yes
Forced                                   : No



Film Detayları


Dirty Grandpa

Dirty Grandpa

Dirty Grandpa

Dirty Grandpa

Dirty Grandpa


Film Fragmanı


Film Detayları

Mini 1080P İndir


Turbobit İle İndir

Mega ile indir

Uptobox ile indir

Mypcloud ile indir

 
Alinti
  


Hızlı Menü:


Şu anda bu konuyu okuyanlar: 1 Ziyaretçi