Hoşgeldin, Ziyaretçi: Giriş Yap Üye Ol


Konuyu Oyla:
  • Derecelendirme: 0/5 - 0 oy
  • 1
  • 2
  • 3
  • 4
  • 5
Çılgın İhtiyar (Dirty Grandpa) Türkçe Dublaj Brrip-Xvid İndir
#1
Filmin Yayınlanma Tarihi: 2016 

indirme türü


Bulut + Premium

vizyon tarihi


22 Haziran 2016

Boyutlar


1,01GB

diller


[TR]

altyazilar


Yok [Eklenebilir]

Video Format: Avi


Audio Video Interleave (.AVI)

Video Detay


MPEG-4, 1296 Kbps, 0,94 GB

imdb puanı


6,0 / 10,0 / 71,000

süre


102 dakika

Ses Kodek: MP3


MPEG-1 Audio Layer III (MP3)

Ses Detay


128 Kbps, 2 Kanal, 94 Mb

rarsifresi


filmbol.org

Editör Puanı


6,0

Genislik Yukseklik


720x304

sürüm


h263 | Brrip-Xvid




Film Detayları

Evlilik arifesindeki Jason ve eski asker emeklisi büyükbabası Dick, bahar tatili için soluğu Florida'da alır! Damat olmak üzereyken Jason'ı zorlu sınavlar beklemektedir. Ancak büyükbabanın niyeti çok farklıdır, eğlenmek, genç kadınlarla zaman geçirmek, kendini kaybetmek istemektedir. Jason büyükbabasının yaptıklarına inanamasa da zaman geçtikçe hayatın tadını çıkarmanın önemli olduğunu anlamaya başlayacaktır.Eğlenceli komedi filminin yönetmenliğini Dan Mazer üstlenirken, senaryo John Phillips'e ait. Filmin oyuncu kadrosunda ise Zac Efron, Robert De Niro ve Zoey Deutch başrollerde.

Teknik Detaylar

Kod:
General
Format                                   : AVI
Format/Info                              : Audio Video Interleave
File size                                : 1.02 GiB
Duration                                 : 1h 42mn
Overall bit rate                         : 1 433 Kbps

Video
ID                                       : 0
Format                                   : MPEG-4 Visual
Format profile                           : Simple@L1
Format settings, BVOP                    : No
Format settings, QPel                    : No
Format settings, GMC                     : No warppoints
Format settings, Matrix                  : Default (H.263)
Codec ID                                 : FMP4
Duration                                 : 1h 42mn
Bit rate                                 : 1 296 Kbps
Width                                    : 720 pixels
Height                                   : 304 pixels
Display aspect ratio                     : 2.35:1
Frame rate                               : 23.976 fps
Color space                              : YUV
Chroma subsampling                       : 4:2:0
Bit depth                                : 8 bits
Scan type                                : Progressive
Compression mode                         : Lossy
Bits/(Pixel*Frame)                       : 0.247
Stream size                              : 949 MiB (90%)
Writing library                          : Lavc56.41.100

Audio
ID                                       : 1
Format                                   : MPEG Audio
Format version                           : Version 1
Format profile                           : Layer 3
Mode                                     : Joint stereo
Mode extension                           : MS Stereo
Codec ID                                 : 55
Codec ID/Hint                            : MP3
Duration                                 : 1h 42mn
Source duration                          : 1h 42mn
Bit rate mode                            : Constant
Bit rate                                 : 128 Kbps
Channel(s)                               : 2 channels
Sampling rate                            : 48.0 KHz
Compression mode                         : Lossy
Stream size                              : 93.7 MiB (9%)
Alignment                                : Aligned on interleaves
Interleave, duration                     : 42 ms (1.00 video frame)
Writing library                          : LAME3.99.5



Film Detayları


Dirty Grandpa

Dirty Grandpa

Dirty Grandpa

Dirty Grandpa

Dirty Grandpa


Film Fragmanı


Film Detayları

Brrip İndir


Turbobit İle İndir

Mega ile indir

Uptobox ile indir

Mypcloud ile indir

 
Alinti
  


Konu ile Alakalı Benzer Konular
Konular Yazar Yorumlar Okunma Son Yorum
Filmin Yayınlanma Tarihi: 2018 Taxi 5 (2018) Türkçe Dublaj Brrip-Xvid İndir BroserBros 0 65 22-07-2018, Saat: 12:17
Son Yorum: BroserBros
Filmin Yayınlanma Tarihi: 2016 Kral İçin Hologram (A Hologram For The King) Türkçe Dublaj Brrip-Xvid İndir BroserBros 0 449 16-02-2017, Saat: 18:20
Son Yorum: BroserBros
Filmin Yayınlanma Tarihi: 2016 Brahman Naman Türkçe Dublaj Brrip-Xvid İndir BroserBros 0 391 13-02-2017, Saat: 15:10
Son Yorum: BroserBros
Filmin Yayınlanma Tarihi: 2015 Merhaba Benim Adım Doris (Hi, My Name Is Doris) Türkçe Dublaj Brrip-Xvid İndir BroserBros 0 470 05-02-2017, Saat: 19:07
Son Yorum: BroserBros
Filmin Yayınlanma Tarihi: 2016 Internet Famous Türkçe Dublaj Brrip-Xvid İndir BroserBros 0 413 02-02-2017, Saat: 21:35
Son Yorum: BroserBros

Hızlı Menü:


Şu anda bu konuyu okuyanlar: 1 Ziyaretçi